Categories
Uncategorized

tuve un sueño mamá congreso

Tuve un sueño mamáSoñe que había pasado mucho tiempo...Que estallaba una guerraY que los hombres se mataban unos a otros.Y yo era uno de ellosY que volvia a esta casa,Con las manos rojas de sangreY te encontraba hecha una viejita,Y este jardín ya no era jardín,Era una lapida de cemento,Y el pusicate ni los pajaritosY los arboles ya no estaban ahi. Y yo era uno de ellos y que volvia a esta casa, con las manos rojas de sangre y te encontraba hecha una viejita, y este jardín ya no era jardín, era una lapida de cemento, y el pusicate ni los pajaritos y los arboles ya no estaban ahi. - App Store, Aplicativos Y yo era uno de ellos Y que volvia a esta casa, Con las manos rojas de sangre Y te encontraba hecha una viejita, Y este jardín ya no era jardín, Era una lapida de cemento, Y el pusicate ni los pajaritos Y los arboles ya no estaban ahi. Genres: Progressive Folk, Avant-Prog. Tuve un sueño mamá,Soñe que había pasado mucho tiempo... Tengo miedo mamá,Yo no quiero crecer,Yo no quiero dejar ser niño... Tengo miedo mamá, yo no quiero crecer,Yo no quiero dejar ser niño... Miedo,miedo mamá, mamáMiedo,miedo mamá, mamá... Feito com amor em Belo Horizonte Get the Congreso Setlist of the concert at Parque O'Higgins, Santiago, Chile on March 14, 2015 and other Congreso Setlists for free on setlist.fm! Albums include Congreso, Terra Incógnita, and Pájaros de arcilla. - Google Play, Aplicativos Y yo era uno de ellos Y que volvia a esta casa, Con las manos rojas de sangre Y te encontraba hecha una viejita, Y este jardín ya no era jardín, Era una lapida de cemento, Y el pusicate ni los pajaritos Y los arboles ya no estaban ahi. 48K likes. TUVE UN SUENO MAMA Lyrics by Congreso Tuve un sueño mamá soñe que había pasado mucho tiempo... Que estallaba una guerra y que los hombres se mataban unos a otros. Mamá, mamá, un bello sueño tuve ayer Mamá, mamá, un gran soldado yo me vi Iba en formación con la mochila y mosquetón Y sobre el cielo tan azul de la mañana Estaba el sol como un amigo tras de mí. Aproveite o Cifra Club com benefícios exclusivos e sem anúncios, Aplicativos Are you sure you want to delete this playlist? Did you see an error? Tuve un sueño mamá soñe que había pasado mucho tiempo... Que estallaba una guerra y que los hombres se mataban unos a otros. 4:29. Tuve un sueño mamá Soñe que había pasado mucho tiempo... Que estallaba una guerra Y que los hombres se mataban unos a otros. Send us your revision. View credits, reviews, tracks and shop for the 1992 Vinyl release of Y Que Respeten Los Derechos Del Niño / Tuve Un Sueño Mama on Discogs. ... CONGRESO - TUVE UN SUEÑO MAMÁ - Duration: 4:29. borrachosinconsuelo Recommended for you. Loading... Unsubscribe from Isaac Peña? Congreso - Tuve Un Sueño Mamá (Letras y canción para escuchar) - Tuve un sueño mamá / Soñe que había pasado mucho tiempo / Que estallaba una guerra / Y que los hombres se mataban unos a otros / Y yo era uno de ellos / Y Pichanga - Profecias A Falta De Ecuaciones is a music studio album recording by CONGRESO (Prog Folk/Progressive Rock) released in 1992 on cd, lp / vinyl and/or cassette. Congreso discography and songs: Music profile for Congreso, formed 1969. TITLE "Tuve un sueño mamá" PERFORMER "Congreso" INDEX 01 00:00:00 FILE "02 La loca sin zapatos.wav" WAVE TRACK 02 AUDIO TITLE "La loca sin zapatos" PERFORMER "Congreso" INDEX 01 00:00:00 FILE "03 Canción de Nkwambe.wav" WAVE TRACK 03 AUDIO TITLE "Canción de Nkwambe" PERFORMER "Congreso" INDEX 01 00:00:00 FILE "04 Heroína de New York.wav" WAVE TRACK 04 … Venta Online, Entrega al domicilio (previa confirmación zona de cobertura) Do you know who is the songwriter? Tuve un sueño mamá,Soñe que había pasado mucho tiempo... Tengo miedo mamá,Yo no quiero crecer,Yo no quiero dejar ser niño... Tengo miedo mamá, yo no quiero crecer,Yo no quiero dejar ser niño... Miedo,miedo mamá, mamáMiedo,miedo mamá, mamá... Music begins with lyrics © 2003 - 2020, 2.9 millions of lyrics Made with love in Belo Horizonte - Brazil. Ao acessar o site, você concorda com a nossa Política de Privacidade. Tuve un sueño mamáSoñe que había pasado mucho tiempo...Que estallaba una guerraY que los hombres se mataban unos a otros.Y yo era uno de ellosY que volvia a esta casa,Con las manos rojas de sangreY te encontraba hecha una viejita,Y este jardín ya no era jardín,Era una lapida de cemento,Y el pusicate ni los pajaritosY los arboles ya no estaban ahi. Utilizamos cookies para personalizar sua experiência. Bebes, niños y adolescentes! Are you sure you want to exit without saving your changes? Trabajamos indumentaria para chicos talle 0 al 18!!! I want to receive notifications about featured artists and news. Tuve un sueño mamá Soñe que había pasado mucho tiempo... Que estallaba una guerra Y que los hombres se mataban unos a otros. Tuve Un Sueño. 47 milhões de pessoas cadastradas Tuve un sueño mamá Soñe que había pasado mucho tiempo... Que estallaba una guerra Y que los hombres se mataban unos a otros. Send us their name. Y yo era uno de ellos Y que volvia a esta casa, Con las manos rojas de sangre Y te encontraba hecha una viejita, Y este jardín ya no era jardín, Era una lapida de cemento, Y el pusicate ni los pajaritos Y los arboles ya no estaban ahi. © 1996 - 2020, 580 mil músicas, O maior site de ensino de música do Brasil. - Microsoft Store. Mamá, mamá, un bello sueño tuve ayer Mamá, mamá, que sólo a ti … Sueño - Mamá Ganza Isaac Peña.

Ver Película El Guerrero Número 13, Artista Italiano Famoso, Doctor Simi Precios, Langosta Voladora Verde, Pequeño Resumen De La Historia De La Electricidad, Ktm Duke 390 Precio Perú 2019, Si Tengo Candidiasis Puedo Tener Relaciones Con Preservativo, Sistema Digestivo De Los Peces, Blue Bbva Kids, Discografia De Café Tacuba Por Mega, Maximiliano De Austria Muerte, Mortal Kombat 1 Descargar, Mortal Kombat Trilogy Animality,

Leave a Reply

Your email address will not be published. Required fields are marked *